Digimon Adventure Tri 01 - Reunion [Dua Torrent Free Download

Seeders : 410   &   Leechers : 212      08-11-2018 (1 week)
Digimon Adventure Tri 01 - Reunion [Dua Torrent Download
Added: ago by ToonNetwork ***** in Anime   3.2 GB   Hits : 31
Info Hash: ACD0EDA02F45BF5AA757839C9DB656E14E60A7DE Download
Digimon Adventure Tri 01 - Reunion [Dua Torrent Download

Anonymous and Direct Download movies , software , shows...

Fast Safe Anonymous
movies, software, shows...

Torrent Description



For More Urd, Hindi & English Anime Visit Our Website: http://bit.ly/2CqTXzg

Quote:


General
Unique ID                      : 194623899840161974067306348456446737398 (0x926B331CE38C49649711948660EB3BF6)
Format                         : Matroska
Format version                 : Version 4
File size                      : 3.19 GiB
Duration                       : 1 h 26 min
Overall bit rate               : 5 270 kb/s

Video
ID                             : 1
Format                         : AVC
Format/Info                    : Advanced Video Codec
Format profile                 : [email protected]
Format settings                : CABAC / 2 Ref Frames
Format settings, CABAC         : Yes
Format settings, ReFrames      : 2 frames
Format settings, GOP           : M=3, N=30
Codec ID                       : V_MPEG4/ISO/AVC
Duration                       : 1 h 26 min
Bit rate                       : 4 951 kb/s
Width                          : 1 920 pixels
Height                         : 1 080 pixels
Display aspect ratio           : 16:9
Frame rate mode                : Constant
Frame rate                     : 23.976 (24000/1001) FPS
Color space                    : YUV
Chroma subsampling             : 4:2:0
Bit depth                      : 8 bits
Scan type                      : Progressive
Bits/(Pixel*Frame)             : 0.100
Stream size                    : 3.00 GiB (94%)
Title                          : English Version
Language                       : English
Default                        : Yes
Forced                         : No

Audio #1
ID                             : 2
Format                         : MPEG Audio
Format version                 : Version 1
Format profile                 : Layer 3
Format settings                : Joint stereo / MS Stereo
Codec ID                       : A_MPEG/L3
Codec ID/Hint                  : MP3
Duration                       : 1 h 26 min
Bit rate mode                  : Constant
Bit rate                       : 160 kb/s
Channel(s)                     : 2 channels
Sampling rate                  : 44.1 kHz
Frame rate                     : 38.281 FPS (1152 SPF)
Compression mode               : Lossy
Stream size                    : 99.3 MiB (3%)
Title                          : Track 1
Writing library                : LAME3.98.2
Language                       : Urdu
Default                        : Yes
Forced                         : Yes

Audio #2
ID                             : 3
Format                         : AAC LC
Format/Info                    : Advanced Audio Codec Low Complexity
Codec ID                       : A_AAC-2
Duration                       : 1 h 26 min
Bit rate                       : 157 kb/s
Channel(s)                     : 2 channels
Channel layout                 : L R
Sampling rate                  : 44.1 kHz
Frame rate                     : 43.066 FPS (1024 SPF)
Compression mode               : Lossy
Stream size                    : 97.6 MiB (3%)
Title                          : Track 2
Language                       : English
Default                        : No
Forced                         : No





Sharing Widget


No Comments For This Torrent . Be The First to Comment

You must Login to Comment . Click Here to Login

Menu 1

Some content in menu 1.

Digimon Adventure Tri 01 - Reunion [Dual-Audio] [Urdu-Hindi, English] (Size: 3.2 GB)
  Digimon Adventure Tri 01 - Reunion [Dual-Audio] [Urdu-Hindi, English] 3.2 GB
tracker name
udp://tracker.leechers-paradise.org:6969/announce
udp://zer0day.ch:1337/announce
udp://open.demonii.com:1337/announce
udp://tracker.coppersurfer.tk:6969/announce
udp://exodus.desync.com:6969/announce
µTorrent compatible trackers list

Relative Torrents

Torrent Name Size Age SEED LEECH
Chaar Sahibzaade (2014) Punjabi 720p WEBDL x264 AC3 DD 5 1 ESubs-Sun George
Posted by    Sungeorge   in   Movies
1.5 GB 3 minutes 358 741
The Last Kingdom S03E01 1080p WEB x264-CiMSON
Posted by    Cristie   in   TV
2.0 GB 3 minutes 619 433
The Happytime Murders 2018 BRRip XviD AC-XVID
Posted by    Trige   in   Movies
1.3 GB 3 minutes 979 485
2019 After The Fall Of New York 1983 720 BluRay H264 AAC
Posted by    Trige   in   Movies
1.2 GB 3 minutes 0 420
Jersey Shore Family Vacation S02E14 WEB 264-TBS [eztv]
Posted by    EZTVag   in   TV
602.0 MB 3 minutes 756 667