Mr & Mrs 420 Returns 2018 x264 720p SD Torrent Free Download

Seeders : 66   &   Leechers : 962      09-11-2018 (5 days)
Mr & Mrs 420 Returns 2018 x264 720p SD Torrent Download
Added: ago by PENDUDESI ***** in Movies   664.1 MB   Hits : 21
Info Hash: 459A6924D6A23FD67C4EC8BCBDFEC159DE746A78 Download
Mr & Mrs 420 Returns 2018 x264 720p SD Torrent Download

Anonymous and Direct Download movies , software , shows...

Fast Safe Anonymous
movies, software, shows...

Torrent Description



http://www.gopisahi.pw/

Format                         : Matroska
Format version                 : Version 4 / Version 2
File size                      : 664 MiB
Duration                       : 2 h 13 min
Overall bit rate               : 697 kb/s
Movie name                     : Mr & Mrs 420 Returns 2018 GOPISAHI

Video
Format                         : AVC
Codec ID                       : V_MPEG4/ISO/AVC
Duration                       : 2 h 13 min
Bit rate                       : 599 kb/s
Width                          : 1 280 pixels
Height                         : 534 pixels
Display aspect ratio           : 2.40:1
Frame rate mode                : Constant
Frame rate                     : 25.000 FPS
Color space                    : YUV
Chroma subsampling             : 4:2:0
Bit depth                      : 8 bits
Scan type                      : Progressive
Bits/(Pixel*Frame)             : 0.035
Stream size                    : 570 MiB (86%)
Title                          : GOPISAHI
Writing library                : x264 core 155 r2901 7d0ff22

Audio
Format                         : AAC
Format/Info                    : Advanced Audio Codec
Duration                       : 2 h 13 min
Bit rate                       : 96.0 kb/s
Channel(s)                     : 2 channels
Channel positions              : Front: L R
Sampling rate                  : 48.0 kHz
Frame rate                     : 46.875 FPS (1024 SPF)
Compression mode               : Lossy
Delay relative to video        : -21 ms
Stream size                    : 91.7 MiB (14%)
Title                          : GOPISAHI
Language                       : Panjabi






Sharing Widget


No Comments For This Torrent . Be The First to Comment

You must Login to Comment . Click Here to Login

Menu 1

Some content in menu 1.

Mr & Mrs 420 Returns 2018 x264 720p SD Punjabi GOPISAHI (Size: 664.1 MB)
  Mr & Mrs 420 Returns 2018 x264 720p SD Punjabi GOPISAHI 664.1 MB
tracker name
udp://tracker.leechers-paradise.org:6969/announce
udp://zer0day.ch:1337/announce
udp://open.demonii.com:1337/announce
udp://tracker.coppersurfer.tk:6969/announce
udp://exodus.desync.com:6969/announce
µTorrent compatible trackers list

Relative Torrents

Torrent Name Size Age SEED LEECH
This Is Us S03E07 XviD-AFG [eztv]
Posted by    EZTVag   in   TV
423.5 MB 30 seconds 937 940
This Is Us S03E07 WEB x264-TBS[rartv]
Posted by    Cristie   in   TV
593.0 MB 5 minutes 233 100
This Is Us S03E07 720p WEB x264-TBS[rart]
Posted by    Cristie   in   TV
810.3 MB 5 minutes 56 741
This Is Us S03E07 1080p WEB x264-TBS[rarv]
Posted by    Cristie   in   TV
1.2 GB 5 minutes 30 472
The Voice S15E16 XviD-AFG[TGx]
Posted by    mazemaze16   in   TV
767.8 MB 5 minutes 637 257