Sex Education 2019 S01 Complete EP 01-08 Torrent Free Download

Seeders : 792   &   Leechers : 390      11-01-2019 (1 week)
Sex Education 2019 S01 Complete EP 01-08 Torrent Download
Added: ago by mkvCinemas ***** in Movies   21.6 GB   Hits : 21
Info Hash: A7840E958171A13A30310F7841A01968004485F7 Download
Sex Education 2019 S01 Complete EP 01-08 Torrent Download

Anonymous and Direct Download movies , software , shows...

Fast Safe Anonymous
movies, software, shows...
Sex Education
Animation /Short  .   2 min   5.2/10
Starring : David Holt  Darren Walsh  
Director : Darren Walsh  
Writer: Ian Dagger  Darren Walsh  
Tags: Sex  Education  2019  S01  Complete  EP  

Released:
N/A
The Kid sits alone in front of the TV, bored, until his ears perk up when the announcer introduces episode two ("Push") in a series on human sexuality. The Kid watches and listens with rapt attention as the program depicts making a baby and giving birth. About half.... See More way through the show, the Kid's little sister joins him on the couch. Will he protect her from knowledge too mature for her to handle? Does the Kid have a big brother's fraternal instincts?

Torrent Description





http://www.mkvCinemas.live

http://tellytorrent.net



********************************

Sex Education 2019 S01 Complete EP 01-08 Untouched WebDL Multi Audio 1080p HEVC DD 5.1 MSub - mkvCinemas [Telly Exclusive]

********************************

Mediainfo:-
Format : Matroska
Format version : Version 4
File size : 2.74 GiB
Duration : 52 min 6 s
Overall bit rate : 7 540 kb/s
Encoded date : UTC 2019-01-11 11:19:30 / UTC 2018-12-29 08:52:17
Writing application : mkvmerge v11.0.0 ('Alive') 64bit
Writing library : libebml v1.3.4 + libmatroska v1.4.5 / Lavf58.0.0

Video
ID : 1
Format : HEVC
Format/Info : High Efficiency Video Coding
Commercial name : HDR10
Format profile : Main [email protected]@Main
Codec ID : V_MPEGH/ISO/HEVC
Duration : 52 min 6 s
Bit rate : 3 934 kb/s
Width : 1 920 pixels
Height : 1 080 pixels
Display aspect ratio : 16:9
Frame rate mode : Constant
Frame rate : 25.000 FPS
Color space : YUV
Chroma subsampling : 4:2:0 (Type 2)
Bit depth : 10 bits
Bits/(Pixel*Frame) : 0.076
Stream size : 1.43 GiB (52%)
Default : Yes
Forced : No
Color range : Limited
Color primaries : BT.2020
Transfer characteristics : PQ
Matrix coefficients : BT.2020 non-constant
Mastering display color pri : Display P3
Mastering display luminance : min: 0.0001 cd/m2, max: 1000 cd/m2
Maximum Content Light Level : 959 cd/m2
Maximum Frame-Average Light : 139 cd/m2
Statistics Tags Issue : mkvmerge v11.0.0 ('Alive') 64bit 2019-01-11 11:19:30 / mkvmerge v11.0.0 ('Alive') 64bit 2019-01-11 11:19:30 / UTC 2018-12-29 08:52:17
FromStats_BitRate : 4111150
FromStats_Duration : 00:51:41.040000000
FromStats_FrameCount : 77526
FromStats_StreamSize : 1593605234

Audio #1
ID : 2
Format : AC-3
Format/Info : Audio Coding 3
Commercial name : Dolby Digital
Codec ID : A_AC3
Duration : 52 min 6 s
Bit rate mode : Constant
Bit rate : 384 kb/s
Channel(s) : 6 channels
Channel layout : L R C LFE Ls Rs
Sampling rate : 48.0 kHz
Frame rate : 31.250 FPS (1536 SPF)
Bit depth : 16 bits
Compression mode : Lossy
Stream size : 143 MiB (5%)
Service kind : Complete Main
Default : Yes
Forced : No
Encoded date : UTC 2018-12-29 08:52:11
Statistics Tags Issue : mkvmerge v11.0.0 ('Alive') 64bit 2019-01-11 11:19:30 / mkvmerge v11.0.0 ('Alive') 64bit 2019-01-11 11:19:30 / UTC 2018-12-29 08:52:17
FromStats_BitRate : 384000
FromStats_Duration : 00:52:06.560000000
FromStats_FrameCount : 97705
FromStats_StreamSize : 150074880

Audio #2
ID : 3
Format : AC-3
Format/Info : Audio Coding 3
Commercial name : Dolby Digital
Codec ID : A_AC3
Duration : 52 min 6 s
Bit rate mode : Constant
Bit rate : 384 kb/s
Channel(s) : 6 channels
Channel layout : L R C LFE Ls Rs
Sampling rate : 48.0 kHz
Frame rate : 31.250 FPS (1536 SPF)
Bit depth : 16 bits
Compression mode : Lossy
Stream size : 143 MiB (5%)
Language : French
Service kind : Complete Main
Default : No
Forced : No
Encoded date : UTC 2018-12-29 08:52:11
Statistics Tags Issue : mkvmerge v11.0.0 ('Alive') 64bit 2019-01-11 11:19:30 / mkvmerge v11.0.0 ('Alive') 64bit 2019-01-11 11:19:30 / UTC 2018-12-29 08:52:17
FromStats_BitRate : 384000
FromStats_Duration : 00:52:06.560000000
FromStats_FrameCount : 97705
FromStats_StreamSize : 150074880

Audio #3
ID : 4
Format : AC-3
Format/Info : Audio Coding 3
Commercial name : Dolby Digital
Codec ID : A_AC3
Duration : 52 min 6 s
Bit rate mode : Constant
Bit rate : 384 kb/s
Channel(s) : 6 channels
Channel layout : L R C LFE Ls Rs
Sampling rate : 48.0 kHz
Frame rate : 31.250 FPS (1536 SPF)
Bit depth : 16 bits
Compression mode : Lossy
Stream size : 143 MiB (5%)
Language : German
Service kind : Complete Main
Default : No
Forced : No
Encoded date : UTC 2018-12-29 08:52:21
Statistics Tags Issue : mkvmerge v11.0.0 ('Alive') 64bit 2019-01-11 11:19:30 / mkvmerge v11.0.0 ('Alive') 64bit 2019-01-11 11:19:30 / UTC 2018-12-29 08:52:17
FromStats_BitRate : 384000
FromStats_Duration : 00:52:06.560000000
FromStats_FrameCount : 97705
FromStats_StreamSize : 150074880

Audio #4
ID : 5
Format : AC-3
Format/Info : Audio Coding 3
Commercial name : Dolby Digital
Codec ID : A_AC3
Duration : 52 min 6 s
Bit rate mode : Constant
Bit rate : 384 kb/s
Channel(s) : 6 channels
Channel layout : L R C LFE Ls Rs
Sampling rate : 48.0 kHz
Frame rate : 31.250 FPS (1536 SPF)
Bit depth : 16 bits
Compression mode : Lossy
Stream size : 143 MiB (5%)
Language : Italian
Service kind : Complete Main
Default : No
Forced : No
Encoded date : UTC 2018-12-29 08:52:11
Statistics Tags Issue : mkvmerge v11.0.0 ('Alive') 64bit 2019-01-11 11:19:30 / mkvmerge v11.0.0 ('Alive') 64bit 2019-01-11 11:19:30 / UTC 2018-12-29 08:52:17
FromStats_BitRate : 384000
FromStats_Duration : 00:52:06.560000000
FromStats_FrameCount : 97705
FromStats_StreamSize : 150074880

Audio #5
ID : 6
Format : AC-3
Format/Info : Audio Coding 3
Commercial name : Dolby Digital
Codec ID : A_AC3
Duration : 52 min 6 s
Bit rate mode : Constant
Bit rate : 384 kb/s
Channel(s) : 6 channels
Channel layout : L R C LFE Ls Rs
Sampling rate : 48.0 kHz
Frame rate : 31.250 FPS (1536 SPF)
Bit depth : 16 bits
Compression mode : Lossy
Stream size : 143 MiB (5%)
Language : Japanese
Service kind : Complete Main
Default : No
Forced : No
Encoded date : UTC 2018-12-29 08:52:16
Statistics Tags Issue : mkvmerge v11.0.0 ('Alive') 64bit 2019-01-11 11:19:30 / mkvmerge v11.0.0 ('Alive') 64bit 2019-01-11 11:19:30 / UTC 2018-12-29 08:52:17
FromStats_BitRate : 384000
FromStats_Duration : 00:52:06.560000000
FromStats_FrameCount : 97705
FromStats_StreamSize : 150074880

Audio #6
ID : 7
Format : AC-3
Format/Info : Audio Coding 3
Commercial name : Dolby Digital
Codec ID : A_AC3
Duration : 52 min 6 s
Bit rate mode : Constant
Bit rate : 384 kb/s
Channel(s) : 6 channels
Channel layout : L R C LFE Ls Rs
Sampling rate : 48.0 kHz
Frame rate : 31.250 FPS (1536 SPF)
Bit depth : 16 bits
Compression mode : Lossy
Stream size : 143 MiB (5%)
Language : Polish
Service kind : Complete Main
Default : No
Forced : No
Encoded date : UTC 2018-12-29 08:52:16
Statistics Tags Issue : mkvmerge v11.0.0 ('Alive') 64bit 2019-01-11 11:19:30 / mkvmerge v11.0.0 ('Alive') 64bit 2019-01-11 11:19:30 / UTC 2018-12-29 08:52:17
FromStats_BitRate : 384000
FromStats_Duration : 00:52:06.560000000
FromStats_FrameCount : 97705
FromStats_StreamSize : 150074880

Audio #7
ID : 8
Format : AC-3
Format/Info : Audio Coding 3
Commercial name : Dolby Digital
Codec ID : A_AC3
Duration : 52 min 6 s
Bit rate mode : Constant
Bit rate : 384 kb/s
Channel(s) : 6 channels
Channel layout : L R C LFE Ls Rs
Sampling rate : 48.0 kHz
Frame rate : 31.250 FPS (1536 SPF)
Bit depth : 16 bits
Compression mode : Lossy
Stream size : 143 MiB (5%)
Service kind : Complete Main
Default : No
Forced : No
Encoded date : UTC 2018-12-29 08:52:19
Statistics Tags Issue : mkvmerge v11.0.0 ('Alive') 64bit 2019-01-11 11:19:30 / mkvmerge v11.0.0 ('Alive') 64bit 2019-01-11 11:19:30 / UTC 2018-12-29 08:52:17
FromStats_BitRate : 384000
FromStats_Duration : 00:52:06.560000000
FromStats_FrameCount : 97705
FromStats_StreamSize : 150074880

Audio #8
ID : 9
Format : AC-3
Format/Info : Audio Coding 3
Commercial name : Dolby Digital
Codec ID : A_AC3
Duration : 52 min 6 s
Bit rate mode : Constant
Bit rate : 384 kb/s
Channel(s) : 6 channels
Channel layout : L R C LFE Ls Rs
Sampling rate : 48.0 kHz
Frame rate : 31.250 FPS (1536 SPF)
Bit depth : 16 bits
Compression mode : Lossy
Stream size : 143 MiB (5%)
Language : Turkish
Service kind : Complete Main
Default : No
Forced : No
Encoded date : UTC 2018-12-29 08:52:12
Statistics Tags Issue : mkvmerge v11.0.0 ('Alive') 64bit 2019-01-11 11:19:30 / mkvmerge v11.0.0 ('Alive') 64bit 2019-01-11 11:19:30 / UTC 2018-12-29 08:52:17
FromStats_BitRate : 384000
FromStats_Duration : 00:52:06.560000000
FromStats_FrameCount : 97705
FromStats_StreamSize : 150074880

Audio #9
ID : 10
Format : AC-3
Format/Info : Audio Coding 3
Commercial name : Dolby Digital
Codec ID : A_AC3
Duration : 52 min 6 s
Bit rate mode : Constant
Bit rate : 384 kb/s
Channel(s) : 6 channels
Channel layout : L R C LFE Ls Rs
Sampling rate : 48.0 kHz
Frame rate : 31.250 FPS (1536 SPF)
Bit depth : 16 bits
Compression mode : Lossy
Stream size : 143 MiB (5%)
Language : Spanish
Service kind : Complete Main
Default : No
Forced : No
Encoded date : UTC 2018-12-29 08:52:17
Statistics Tags Issue : mkvmerge v11.0.0 ('Alive') 64bit 2019-01-11 11:19:30 / mkvmerge v11.0.0 ('Alive') 64bit 2019-01-11 11:19:30 / UTC 2018-12-29 08:52:17
FromStats_BitRate : 384000
FromStats_Duration : 00:52:06.560000000
FromStats_FrameCount : 97705
FromStats_StreamSize : 150074880

Text #1
ID : 11
Format : UTF-8
Codec ID : S_TEXT/UTF8
Codec ID/Info : UTF-8 Plain Text
Title : English
Language : English
Default : No
Forced : No
Statistics Tags Issue : mkvmerge v11.0.0 ('Alive') 64bit 2019-01-11 11:19:30 / mkvmerge v11.0.0 ('Alive') 64bit 2019-01-11 11:19:30 / UTC 2018-12-29 08:52:17
FromStats_BitRate : 75
FromStats_Duration : 00:51:25.960000000
FromStats_FrameCount : 914
FromStats_StreamSize : 29302

Text #2
ID : 12
Format : UTF-8
Codec ID : S_TEXT/UTF8
Codec ID/Info : UTF-8 Plain Text
Title : Spanish
Language : Spanish
Default : No
Forced : No
Statistics Tags Issue : mkvmerge v11.0.0 ('Alive') 64bit 2019-01-11 11:19:30 / mkvmerge v11.0.0 ('Alive') 64bit 2019-01-11 11:19:30 / UTC 2018-12-29 08:52:17
FromStats_BitRate : 51
FromStats_Duration : 00:50:54.280000000
FromStats_FrameCount : 744
FromStats_StreamSize : 19765

Text #3
ID : 13
Format : UTF-8
Codec ID : S_TEXT/UTF8
Codec ID/Info : UTF-8 Plain Text
Title : European Spanish
Language : Spanish
Default : No
Forced : No
Statistics Tags Issue : mkvmerge v11.0.0 ('Alive') 64bit 2019-01-11 11:19:30 / mkvmerge v11.0.0 ('Alive') 64bit 2019-01-11 11:19:30 / UTC 2018-12-29 08:52:17
FromStats_BitRate : 57
FromStats_Duration : 00:50:54.520000000
FromStats_FrameCount : 733
FromStats_StreamSize : 21923

Text #4
ID : 14
Format : UTF-8
Codec ID : S_TEXT/UTF8
Codec ID/Info : UTF-8 Plain Text
Title : Dutch
Language : Dutch
Default : No
Forced : No
Statistics Tags Issue : mkvmerge v11.0.0 ('Alive') 64bit 2019-01-11 11:19:30 / mkvmerge v11.0.0 ('Alive') 64bit 2019-01-11 11:19:30 / UTC 2018-12-29 08:52:17
FromStats_BitRate : 54
FromStats_Duration : 00:50:54.440000000
FromStats_FrameCount : 707
FromStats_StreamSize : 20880

Text #5
ID : 15
Format : UTF-8
Codec ID : S_TEXT/UTF8
Codec ID/Info : UTF-8 Plain Text
Title : Italian
Language : Italian
Default : No
Forced : No
Statistics Tags Issue : mkvmerge v11.0.0 ('Alive') 64bit 2019-01-11 11:19:30 / mkvmerge v11.0.0 ('Alive') 64bit 2019-01-11 11:19:30 / UTC 2018-12-29 08:52:17
FromStats_BitRate : 55
FromStats_Duration : 00:50:54.520000000
FromStats_FrameCount : 703
FromStats_StreamSize : 21328

Text #6
ID : 16
Format : UTF-8
Codec ID : S_TEXT/UTF8
Codec ID/Info : UTF-8 Plain Text
Title : Portuguese
Language : Portuguese
Default : No
Forced : No
Statistics Tags Issue : mkvmerge v11.0.0 ('Alive') 64bit 2019-01-11 11:19:30 / mkvmerge v11.0.0 ('Alive') 64bit 2019-01-11 11:19:30 / UTC 2018-12-29 08:52:17
FromStats_BitRate : 55
FromStats_Duration : 00:50:57.560000000
FromStats_FrameCount : 708
FromStats_StreamSize : 21339

Text #7
ID : 17
Format : UTF-8
Codec ID : S_TEXT/UTF8
Codec ID/Info : UTF-8 Plain Text
Title : Brazilian Portuguese
Language : Portuguese
Default : No
Forced : No
Statistics Tags Issue : mkvmerge v11.0.0 ('Alive') 64bit 2019-01-11 11:19:30 / mkvmerge v11.0.0 ('Alive') 64bit 2019-01-11 11:19:30 / UTC 2018-12-29 08:52:17
FromStats_BitRate : 56
FromStats_Duration : 00:49:50.520000000
FromStats_FrameCount : 698
FromStats_StreamSize : 20946

Text #8
ID : 18
Format : UTF-8
Codec ID : S_TEXT/UTF8
Codec ID/Info : UTF-8 Plain Text
Title : Polish
Language : Polish
Default : No
Forced : No
Statistics Tags Issue : mkvmerge v11.0.0 ('Alive') 64bit 2019-01-11 11:19:30 / mkvmerge v11.0.0 ('Alive') 64bit 2019-01-11 11:19:30 / UTC 2018-12-29 08:52:17
FromStats_BitRate : 48
FromStats_Duration : 00:50:54.520000000
FromStats_FrameCount : 714
FromStats_StreamSize : 18643

Text #9
ID : 19
Format : UTF-8
Codec ID : S_TEXT/UTF8
Codec ID/Info : UTF-8 Plain Text
Title : Swedish
Language : Swedish
Default : No
Forced : No
Statistics Tags Issue : mkvmerge v11.0.0 ('Alive') 64bit 2019-01-11 11:19:30 / mkvmerge v11.0.0 ('Alive') 64bit 2019-01-11 11:19:30 / UTC 2018-12-29 08:52:17
FromStats_BitRate : 54
FromStats_Duration : 00:50:54.520000000
FromStats_FrameCount : 587
FromStats_StreamSize : 20723

Text #10
ID : 20
Format : UTF-8
Codec ID : S_TEXT/UTF8
Codec ID/Info : UTF-8 Plain Text
Title : Finnish
Language : Finnish
Default : No
Forced : No
Statistics Tags Issue : mkvmerge v11.0.0 ('Alive') 64bit 2019-01-11 11:19:30 / mkvmerge v11.0.0 ('Alive') 64bit 2019-01-11 11:19:30 / UTC 2018-12-29 08:52:17
FromStats_BitRate : 50
FromStats_Duration : 00:49:50.520000000
FromStats_FrameCount : 725
FromStats_StreamSize : 18972

Text #11
ID : 21
Format : UTF-8
Codec ID : S_TEXT/UTF8
Codec ID/Info : UTF-8 Plain Text
Title : French
Language : French
Default : No
Forced : No
Statistics Tags Issue : mkvmerge v11.0.0 ('Alive') 64bit 2019-01-11 11:19:30 / mkvmerge v11.0.0 ('Alive') 64bit 2019-01-11 11:19:30 / UTC 2018-12-29 08:52:17
FromStats_BitRate : 57
FromStats_Duration : 00:49:50.520000000
FromStats_FrameCount : 740
FromStats_StreamSize : 21607

Text #12
ID : 22
Format : UTF-8
Codec ID : S_TEXT/UTF8
Codec ID/Info : UTF-8 Plain Text
Title : Russian
Default : No
Forced : No
Statistics Tags Issue : mkvmerge v11.0.0 ('Alive') 64bit 2019-01-11 11:19:30 / mkvmerge v11.0.0 ('Alive') 64bit 2019-01-11 11:19:30 / UTC 2018-12-29 08:52:17
FromStats_BitRate : 85
FromStats_Duration : 00:49:50.520000000
FromStats_FrameCount : 740
FromStats_StreamSize : 32125

Text #13
ID : 23
Format : UTF-8
Codec ID : S_TEXT/UTF8
Codec ID/Info : UTF-8 Plain Text
Title : Norwegian
Language : Norwegian
Default : No
Forced : No
Statistics Tags Issue : mkvmerge v11.0.0 ('Alive') 64bit 2019-01-11 11:19:30 / mkvmerge v11.0.0 ('Alive') 64bit 2019-01-11 11:19:30 / UTC 2018-12-29 08:52:17
FromStats_BitRate : 47
FromStats_Duration : 00:49:50.520000000
FromStats_FrameCount : 744
FromStats_StreamSize : 17848

Text #14
ID : 24
Format : UTF-8
Codec ID : S_TEXT/UTF8
Codec ID/Info : UTF-8 Plain Text
Title : Danish
Language : Danish
Default : No
Forced : No
Statistics Tags Issue : mkvmerge v11.0.0 ('Alive') 64bit 2019-01-11 11:19:30 / mkvmerge v11.0.0 ('Alive') 64bit 2019-01-11 11:19:30 / UTC 2018-12-29 08:52:17
FromStats_BitRate : 51
FromStats_Duration : 00:50:54.440000000
FromStats_FrameCount : 724
FromStats_StreamSize : 19607

Text #15
ID : 25
Format : UTF-8
Codec ID : S_TEXT/UTF8
Codec ID/Info : UTF-8 Plain Text
Title : Greek
Default : No
Forced : No
Statistics Tags Issue : mkvmerge v11.0.0 ('Alive') 64bit 2019-01-11 11:19:30 / mkvmerge v11.0.0 ('Alive') 64bit 2019-01-11 11:19:30 / UTC 2018-12-29 08:52:17
FromStats_BitRate : 91
FromStats_Duration : 00:50:54.440000000
FromStats_FrameCount : 725
FromStats_StreamSize : 34880

Text #16
ID : 26
Format : UTF-8
Codec ID : S_TEXT/UTF8
Codec ID/Info : UTF-8 Plain Text
Title : German
Language : German
Default : No
Forced : No
Statistics Tags Issue : mkvmerge v11.0.0 ('Alive') 64bit 2019-01-11 11:19:30 / mkvmerge v11.0.0 ('Alive') 64bit 2019-01-11 11:19:30 / UTC 2018-12-29 08:52:17
FromStats_BitRate : 56
FromStats_Duration : 00:50:53.280000000
FromStats_FrameCount : 690
FromStats_StreamSize : 21613

Text #17
ID : 27
Format : UTF-8
Codec ID : S_TEXT/UTF8
Codec ID/Info : UTF-8 Plain Text
Title : Indonesian
Default : No
Forced : No
Statistics Tags Issue : mkvmerge v11.0.0 ('Alive') 64bit 2019-01-11 11:19:30 / mkvmerge v11.0.0 ('Alive') 64bit 2019-01-11 11:19:30 / UTC 2018-12-29 08:52:17
FromStats_BitRate : 53
FromStats_Duration : 00:49:50.840000000
FromStats_FrameCount : 692
FromStats_StreamSize : 19876

Text #18
ID : 28
Format : UTF-8
Codec ID : S_TEXT/UTF8
Codec ID/Info : UTF-8 Plain Text
Title : Turkish
Language : Turkish
Default : No
Forced : No
Statistics Tags Issue : mkvmerge v11.0.0 ('Alive') 64bit 2019-01-11 11:19:30 / mkvmerge v11.0.0 ('Alive') 64bit 2019-01-11 11:19:30 / UTC 2018-12-29 08:52:17
FromStats_BitRate : 57
FromStats_Duration : 00:49:50.520000000
FromStats_FrameCount : 747
FromStats_StreamSize : 21665


********************************

Wherever you Share our Stuffs, Give Proper Credit to "mkvCinemas @Team Telly"
We Keep All Torrents. In case of re-seed, please pm.


********************************



********************************



********************************




Sharing Widget


No Comments For This Torrent . Be The First to Comment

You must Login to Comment . Click Here to Login

Menu 1

Some content in menu 1.

Sex Education 2019 S01 Complete EP 01-08 Untouched WebDL Multi Audio 1 (Size: 21.6 GB)
  Sex Education 2019 S01 Complete EP 01-08 Untouched WebDL Multi Audio 1 21.6 GB
tracker name
udp://tracker.leechers-paradise.org:6969/announce
udp://zer0day.ch:1337/announce
udp://open.demonii.com:1337/announce
udp://tracker.coppersurfer.tk:6969/announce
udp://exodus.desync.com:6969/announce
µTorrent compatible trackers list

Relative Torrents

Torrent Name Size Age SEED LEECH
The Upside 2019 Movies HD Cam Clean Audi New Source with Sample ☻rDX☻
Posted by    nehalpuja   in   Movies
705.2 MB 1 minute 578 475
New Amsterdam 2018 S01E12 HDTV x264-KILLRS [eztv]
Posted by    EZTVag   in   TV
215.5 MB 8 minutes 527 907
New Amsterdam 2018 S01E12 720p HDTV x264KILLERS [eztv]
Posted by    EZTVag   in   TV
697.8 MB 8 minutes 18 353
Silent Witness S22E06 To Brighton To Brihton Part 2 720p AMZN WEB-DL DDP5 1 H 2
Posted by    EZTVag   in   TV
1.5 GB 8 minutes 762 548
Mortal Engines (2018) 720p HC HDRip x26 [Dual-Audio][Hindi (Cleaned) - English
Posted by    downloadhub   in   Movies
1.0 GB 13 minutes 567 839